10 November 2013

Iron Maiden - Hellinikon Arena,Athens,Greece (03/11/2007)


TRACKLIST:

  
00:00:00.000                     : :Intro
00:00:48.916                     : :Different World
00:04:49.957                     : :These Colours Don't Run
00:11:44.972                     : :Brighter Than a Thousand Suns
00:22:18.939                     : :Wrathchild
00:25:14.948                     : :The Trooper
00:29:24.898                     : :The Reincarnation of Benjamin Breeg
00:37:07.928                     : :For The Greater Good of God
00:46:25.452                     : :The Number of The Beast
00:51:24.885                     : :Fear of The Dark
00:58:54.868                     : :Run To The Hills
01:03:05.919                     : :Iron Maiden
01:14:14.955                     : :2 Minutes To Midnight
01:20:06.907                     : :The Evil That Men Do
01:24:27.935                     : :Hallowed Be Thy Name
01:32:04.925                     : :Happy Birthday Steve!  
 

Artist :       Iron Maiden
Country :     UK
Release :     Hellinikon Arena,Athens,Greece (03-11-2007)
Year :           2007
Genre :       Heavy Metal
File Type :   .mkv
Download :  
 

Info: 

Recorded live in Athens, Greece Hellinikon Basketball Arena.

Format                           : Matroska
File size                        : 690 MiB
Duration                         : 1h 33mn
Overall bit rate                 : 1 029 Kbps
Writing application              : AVI-Mux GUI 1.17.7, Aug  8 2006  20:59:17


Video
ID                               : 1
Format                           : MPEG-4 Visual
Format profile                   : Advanced Simple@L5
Format settings, BVOP            : Yes
Format settings, QPel            : Yes
Format settings, GMC             : 3 warppoints
Format settings, Matrix          : Default (H.263)
Codec ID                         : XVID
Codec ID/Hint                    : XviD
Duration                         : 1h 33mn
Bit rate                         : 933 Kbps
Width                            : 352 pixels
Height                           : 288 pixels
Display aspect ratio             : 1.222
Frame rate                       : 29.970 fps
Standard                         : PAL
Color space                      : YUV
Chroma subsampling               : 4:2:0
Bit depth                        : 8 bits
Scan type                        : Progressive
Compression mode                 : Lossy
Bits/(Pixel*Frame)               : 0.307
Stream size                      : 625 MiB (91%)
Title                            : Iron Maiden - A Matter Of Life And Death World Tour - Hellinikon, Athens, Greece - 11th March 2007
Writing library                  : XviD 1.1.2 (UTC 2006-11-01)
Language                         : English

Audio
ID                               : 2
Format                           : MPEG Audio
Format version                   : Version 1
Format profile                   : Layer 3
Mode                             : Joint stereo
Mode extension                   : MS Stereo
Codec ID                         : A_MPEG/L3
Codec ID/Hint                    : MP3
Duration                         : 1h 33mn
Bit rate mode                    : Variable
Bit rate                         : 76.0 Kbps
Minimum bit rate                 : 32.0 Kbps
Channel(s)                       : 2 channels
Sampling rate                    : 32.0 KHz
Compression mode                 : Lossy
Stream size                      : 51.0 MiB (7%)
Title                            : Iron Maiden - A Matter Of Life And Death World Tour - Hellinikon, Athens, Greece - 11th March 2007
Writing library                  : LAME3.97b
Encoding settings                : -m j -V 7 -q 2 -lowpass 14.9 --vbr-old -b 32
Language                         : English

4 comments:

AchiLLeS Gr said...

Of course i was there :-) MKV file is always welcomed. Thanks m8!

Anonymous said...

Half your luck AchiLLeS,I saw them 2011 at Soundwave Festival Australia. Please send link to
ozzys_son_1@hotmail.com

And Thanks for this post.\m/.

Kammenos said...

Mail sent, but how can you be Ozzy's Son since he doesn't have one...hahahaha...

Luiz Augusto Gonçalves Benicio da Silva said...

thanks, up the irons!